#TITLE:We luv Music;
#SUBTITLE:~Magna Trick & PlasmaVenom~;
#ARTIST:AmuseWorld;
#TITLETRANSLIT:;
#SUBTITLETRANSLIT:;
#ARTISTTRANSLIT:;
#CREDIT:Magna Trick & Plasma Venom;
#BANNER:WLM-BN.png;
#BACKGROUND:WLM-BG.png;
#LYRICSPATH:;
#CDTITLE:MT&PV.png;
#MUSIC:05 We Luv Music.mp3;
#OFFSET:-0.300;
#SAMPLESTART:36.076;
#SAMPLELENGTH:11.980;
#SELECTABLE:YES;
#BPMS:0.000=139.010;
#STOPS:308.000=0.440
;
#BGCHANGES:;
// cache tags:
#FIRSTBEAT:0.000;
#LASTBEAT:412.000;
#SONGFILENAME:Songs/Chilean Keyboard Megapack 3/(Magna Trick & PlasmaVenom) We Luv Music/We Luv Music.sm;
#HASMUSIC:1;
#HASBANNER:1;
#MUSICLENGTH:184.314;
// end cache tags

//---------------dance-single - ----------------
#NOTES:
     dance-single:
     :
     Challenge:
     11:
     1.000,1.000,1.000,0.401,0.865,963.000,320.000,74.000,0.000,22.000:
0002
0010
0100
0000
0000
0010
0100
0000
0000
0000
0000
0000
0000
0000
0000
0000
,
1103
0000
2100
0000
0000
0001
0100
0000
0000
0001
0100
0000
0000
0000
0000
0000
,
3120
0001
1130
0001
1000
0110
0001
2000
,
3020
0100
1031
0100
1000
0101
0010
1000
,
0201
0010
1301
0100
1000
0101
0010
0002
,
0203
0010
1301
0010
0001
1010
0100
0001
,
1020
0100
1031
0010
0001
1010
0100
2000
,
3020
0100
1031
0100
0010
1001
0100
0010
,
2001
0100
3011
1000
0010
1001
0100
0002
,
2003
0100
3011
0100
0001
1100
0001
0100
,
2001
0100
0010
0000
0000
0100
0010
0000
0000
0100
3010
0000
0000
0000
0000
0000
,
0101
0010
1000
0001
0100
1000
0010
0001
0100
0010
1000
0100
0010
1000
0100
0010
,
0101
0000
0010
0000
0101
1000
0000
0110
0000
1000
0011
0000
0100
0000
0011
0000
,
1010
0000
1001
0000
0110
0001
0000
1010
0000
1000
0110
0000
0001
0000
1010
0000
,
0110
0000
0101
0000
1001
0100
0000
0011
0000
0100
1001
0000
0010
0000
0101
0000
,
1100
0000
1001
0000
0110
1000
0000
0011
0000
0001
1100
0000
0001
1000
0010
0100
,
1001
0000
0100
0000
1001
0010
0000
1100
0000
0001
1010
0000
1000
0000
0101
0000
,
0110
0000
0011
0000
1100
0001
0000
0110
0000
0010
1100
0000
0001
0000
0110
0000
,
1100
0000
1001
0000
0011
1000
0000
0101
0000
1000
0011
0000
0100
0000
1001
0000
,
1010
0100
0001
1000
0100
0010
0001
0010
0101
1000
0010
0100
0011
1000
0100
0010
,
1001
0000
1000
0000
0011
0100
0000
1010
0000
0001
0110
0000
0010
0000
1001
0000
,
1100
0000
0101
0000
1010
0001
0000
1100
0000
0100
1010
0000
0001
0000
1100
0000
,
1010
0000
0011
0000
0101
0010
0000
1001
0000
0010
0101
0000
1000
0000
0011
0000
,
0110
0000
0101
0000
1010
0100
0000
1001
0000
0001
0110
0000
0001
0100
1000
0010
,
0101
0000
0010
0000
0101
1000
0000
0110
0000
0001
1100
0000
0100
0000
0011
0000
,
1010
0000
1001
0000
0110
0001
0000
1010
0000
1000
0110
0000
0001
0000
1010
0000
,
0110
0000
0101
0000
1001
0100
0000
0011
0000
0100
1001
0000
0010
0000
0101
0000
,
1100
0010
0001
0100
0010
1000
0001
1000
0011
0100
1000
0010
0101
1000
0010
0100
,
1001
0100
0100
0100
,
1001
0000
0020
0100
0000
0030
0002
1000
0100
0003
1000
0100
0011
0000
0000
0000
,
1001
0000
0002
1000
0000
0103
0020
0100
1000
0030
0001
1000
0010
0000
0000
0000
,
1001
0000
0200
1000
0000
0300
0002
0000
1100
0003
1100
0000
0011
0000
0000
0000
,
1001
0000
0020
0001
0000
0030
0200
0010
1001
0310
0100
0000
1001
0000
0100
0000
,
1001
0010
2000
0100
0001
3100
0020
0001
1000
0130
0001
1000
0110
0000
0000
0000
,
1001
0000
0020
0100
0000
0031
0020
0100
1000
0030
0100
0011
0000
0000
0000
0000
,
1001
0010
0200
0001
1300
0100
0020
0001
0130
1000
0001
0010
0101
0000
0000
0000
,
1001
0010
0100
0001
1000
0000
0010
0100
1001
0010
0100
0010
1001
0100
0010
0100
,
1001
0010
1000
0010
0100
1000
0001
0010
0001
1000
0100
0001
1000
0010
0100
0010
,
1001
0100
0010
1000
0100
0010
1000
0010
0001
1000
0001
0010
0200
0000
0000
0000
,
1301
0000
0000
0000
1000
0010
0100
0001
1000
0000
0100
0000
1000
0011
0000
0000
,
1001
0010
0100
0001
1000
0100
0001
0010
1001
0100
0001
0010
1001
0010
1000
0100
,
1001
0010
1000
0010
0100
1000
0100
0010
1000
0010
0001
1000
0100
0001
0010
0100
,
1001
0010
0100
0001
1000
0010
0100
1000
0001
0010
0001
1000
0100
0010
0200
0000
,
1301
0010
1000
0001
0010
0100
0001
1000
0100
0010
0001
0010
0100
1000
0001
0000
,
1001
0100
0010
1000
0001
0100
0001
0010
1001
0100
0001
0010
1001
0100
0001
1000
,
0101
0000
0010
0000
1100
0000
0010
0001
0000
0010
0001
1000
0010
0000
0001
0000
,
1100
0000
0010
0000
0101
0000
0010
0100
0000
0010
0100
0001
1000
0000
0001
0000
,
1100
0000
0010
0000
0101
0000
1000
0010
0000
0010
1000
0001
1000
0000
0010
0000
,
0101
0000
0010
0000
1100
0000
0010
1000
0000
1000
0001
0010
0001
0000
0010
0000
,
1100
0000
0001
0000
1010
0000
1000
0100
0000
0100
1000
0001
0010
0000
0100
0000
,
1010
0000
0100
0000
0011
0000
0100
0001
0000
0001
0010
0100
1000
0000
0001
0000
,
1010
0000
0100
0000
0011
0000
0100
0001
0000
0001
1000
0100
1000
0000
0001
0000
,
0110
0000
0100
0000
1001
0000
0010
1000
0000
1000
0100
0010
0001
0010
0100
1000
,
0102
0000
2013
0000
3001
0100
0010
1000
,
0100
1000
0001
0010
0200
0000
2300
0000
,
3002
0000
0203
0000
0310
1000
0100
1000
,
0001
0000
0100
0000
0001
0000
0010
0000
2000
0000
0000
0000
3010
0001
1000
0010
,
0002
0000
2003
0000
3010
0100
0001
0100
,
0010
1000
0200
0000
0320
0000
0032
0000
,
2003
0000
3020
0000
0130
0001
1000
0100
,
1000
0001
0100
0001
0010
0100
0010
0001
1000
0010
0100
0001
2000
0100
0010
3001
,
0110
0000
1010
0000
1001
0110
0000
0101
0000
0101
1001
0000
0100
0000
0011
0000
,
1010
0000
1100
0000
1100
1100
0000
0110
0000
0110
1001
0000
0100
0000
1010
0000
,
1100
0000
0011
0000
0101
1001
0000
1010
0000
0101
0110
0000
0001
0000
1100
0000
,
1100
0000
1001
0000
1001
1100
0000
0101
0000
1001
0011
0000
0100
1000
0001
0100
,
1010
0000
1001
0000
1100
0011
0000
1100
0000
1001
0101
0000
0100
0000
0110
0000
,
0101
0000
1100
0000
0011
0110
0000
0011
0000
0110
0110
0000
0100
0000
1100
0000
,
0110
0000
0101
0000
0110
0110
0000
1001
0000
0101
1001
0000
0001
0000
1001
0000
,
1010
0000
1001
0000
0110
0110
0000
1001
0000
0110
0110
1000
0001
0100
1000
0100
,
1001
0000
0000
0000
0110
0000
0000
0000
1000
0000
0000
0010
0000
0001
0000
0000
,
2000
0000
0000
0000
3101
0000
0000
0000
0010
0000
0000
1000
0000
0010
0000
0000
,
2000
0000
0000
0000
3110
0000
0000
0000
0001
0000
0000
1000
0000
0001
0000
0000
,
2000
0000
0000
0000
3101
0000
0010
0001
1000
0000
0010
0000
0100
0000
0001
1000
,
0200
0000
0000
0000
0311
0000
0000
0000
1100
0000
0000
0110
0000
0011
0000
0000
,
2000
0000
0000
0000
3110
0000
0000
0000
0101
0000
0000
0110
0000
1100
0000
0000
,
0002
0000
0000
0000
1103
0000
0000
0000
0110
0000
0000
0011
0000
1001
0000
0000
,
2000
0000
0100
0010
3001
0000
0000
0000
0010
0000
0100
1000
0001
0000
0010
0100
,
1001
0000
0000
0000
1000
0001
1000
0001
1000
0001
1000
0001
1010
0000
0100
0000
,
0011
0000
0100
1000
0000
0100
1000
0001
0100
0000
1000
0000
0011
0000
0100
0000
,
1010
0000
0100
0010
0000
0100
0010
1000
0001
0000
1000
0000
0011
0000
0100
0000
,
1010
0000
0001
0100
0000
0100
0001
1000
0001
0000
0100
0000
1010
0000
0100
0000
,
0011
0000
0100
0001
0000
0001
1000
0100
1000
0000
0100
0000
0011
0000
1000
0000
,
0101
0000
0001
0010
0000
0010
0001
1000
0100
0000
0010
0000
0101
0000
0010
0000
,
1100
0000
0010
1000
0000
1000
0100
0010
0001
0000
1000
0000
0101
0000
0010
0000
,
1100
0000
0010
1000
0000
1000
0001
0010
0001
0000
1000
0000
0110
0000
0010
0000
,
1001
0000
0100
0001
0000
0001
0010
0100
1000
0100
0010
0001
2010
0000
0000
0000
,
3102
0000
1003
0010
0100
0001
0010
0001
,
1000
0100
0020
0000
0032
0000
2003
0000
,
3020
0000
0130
0001
0010
0001
1000
0010
,
1000
0000
0100
0000
0002
0000
0000
0000
0103
1000
0001
0100
2000
0000
0000
0000
,
3002
0000
0103
0010
1000
0010
0100
0001
,
0020
0000
0230
0000
2300
0000
3002
2000
,
0003
3020
0000
0000
0032
0000
0000
0203
0000
0000
0320
0000
0031
1000
0010
1000
,
0100
0010
0100
1000
0001
0100
0010
1000
0002
0010
0100
1003
0110
0000
0101
0000
,
1001
0110
0000
1010
0000
1010
1001
0000
0010
0000
1100
0000
0101
0000
0011
0000
,
0011
0011
0000
0110
0000
0110
1001
0000
0010
0000
0101
0000
0011
0000
1100
0000
,
1010
1001
0000
0101
0000
1010
0110
0000
1000
0000
0011
0000
0011
0000
1001
0000
,
1001
0011
0000
1010
0000
1001
1100
0000
0010
0001
1000
0010
0101
0000
1001
0000
,
0011
1100
0000
0011
0000
1001
1010
0000
0010
0000
0110
0000
1010
0000
0011
0000
,
1100
0110
0000
1100
0000
0110
0110
0000
0010
0000
0011
0000
0110
0000
1010
0000
,
0110
0110
0000
1001
0000
1010
1001
0000
1000
0000
1001
0000
0101
0000
1001
0000
,
0110
0110
0000
1001
0000
0110
0110
0001
1000
0010
0001
0010
2002
0000
0000
0000
,
0000
0000
0000
0000
,
3003
0000
0000
0000
;
